Down.Periscope.HDTv.VIDI.mkv

Type: >
Size:n/a
Info:IMDB
Spoken language(s):Englisch
Uploaded:Jan 1st, 1970
By:gradinaru
Seeders:0
Leechers:4
Comments1
Info Hash:bbd8308a439929579175bb8448170ef2517bf73b
Lt. Cmdr. Tom Dodge is assigned as Captain to the USS Stingray, an old diesel driven submarine that has seen better days. With a crew that consists only of weird guys (and a gal), he's headed against the atomic powered USS Orlando, with the mission to destroy a dummy battleship


Video :


Width : 1 280 pixels
Height : 720 pixels
Display aspect ratio : 16:9
Frame rate : 23.976 fps
Stream size : 7.26 GiB (96%)
Language : English


Audio

Format : AC-3
Bit rate : 256 Kbps
Channel(s) : 6 channels
Sampling rate : 48.0 KHz
Bit depth : 16 bits
Compression mode : Lossy
Stream size : 163 MiB (2%)
Files:

Comments

seed please stuck at 99% :O

kimcaine74May 30th, 2012