Battleship 2012 CAM NEW SOURCE XviD Feel-Free

Type:Video > Movies
Size:1.45 GB
Info:IMDB
Uploaded:Apr 24th, 2012
By:.BONE.VIP
Seeders:1
Leechers:0
Comments6
Info Hash:ef2ad5d0698671cf6ef64272491ebafbdc8d5771
Genre:Action | Sci-Fi | Thriller
Language:English
www.imdb.com/title/tt1440129/
Source:Twixx,p76/26K Thanks!
Encoder:Tony


Format : AVI
Format/Info : Audio Video Interleave
File size : 1.45 GiB
Duration : 2h 0mn
Overall bit rate : 1 712 Kbps


Video
ID : 0
Format : MPEG-4 Visual
Format profile : Advanced Simple@L5
Format settings, BVOP : 1
Format settings, QPel : No
Format settings, GMC : No warppoints
Format settings, Matrix : Default (H.263)
Codec ID : XVID
Codec ID/Hint : XviD
Duration : 2h 0mn
Bit rate : 1 510 Kbps
Width : 640 pixels
Height : 240 pixels
Display aspect ratio : 2.667
Frame rate : 25.000 fps
Color space : YUV
Chroma subsampling : 4:2:0
Bit depth : 8 bits
Scan type : Progressive
Compression mode : Lossy
Bits/(Pixel*Frame) : 0.393
Stream size : 1.27 GiB (88%)
Writing library : XviD 1.2.1 (UTC 2008-12-04)


Audio
ID : 1
Format : AC-3
Format/Info : Audio Coding 3
Mode extension : CM (complete main)
Codec ID : 2000
Duration : 2h 0mn
Bit rate mode : Constant
Bit rate : 192 Kbps
Channel(s) : 2 channels
Channel positions : Front: L R
Sampling rate : 48.0 KHz
Bit depth : 16 bits
Compression mode : Lossy
Stream size : 166 MiB (11%)
Alignment : Aligned on interleaves
Interleave, duration : 40 ms (1.00 video frame)
Interleave, preload duration : 512 ms



Plot:
A fleet of ships is forced to do battle with an armada of unknown origins in order to discover and thwart their destructive goals.





Files:

Comments

Is this the same one that was uploaded yesterday? Are there people laughing in backgroud?

KevinCostnerApr 24th, 2012

cam audio so a bet it is. just wait till u see line and then dwnload. saves all the moanen

casper1690Apr 24th, 2012

Gooday .BONE. I check your downloads every day mate and love your stuff! I have this movie that I'd like to request you to create a torrent for me please ? It is: The Undying - the 2009 version.... I'd be very appreciative if you could so this for me and I'm sure everybody else will also enjoy this beaut horror movie.... Cheers from Johnnydingo in Australia....

JohnnydingoApr 25th, 2012

Hey can you up community and glee both season 3 for psp??If so then PPPLLLEEAAASSSEEEEE PPPLLLEEEAAASSSSEEE do so!!!

bellokukuApr 25th, 2012

dont upload psp and not seen it

 .BONE.Apr 25th, 2012

Thnx .BONE.

.net_ishMay 1st, 2012