OV7 - Magia (h264/mp4)

Type:Video > Music videos
Size:60.93 MB
Uploaded:Apr 22nd, 2012
By:MusicVideos-HQTrusted
Seeders:1
Leechers:0
Comments0
Info Hash:2d402fc797831c2c8fab6b4c91eeedc264409df1
General


Format : MPEG-4
Format profile : Base Media
Codec ID : isom
File size : 60.9 MiB
Duration : 3mn 32s
Overall bit rate : 2 410 Kbps
Encoded date : UTC 2012-04-21 18:23:10
Tagged date : UTC 2012-04-21 18:23:10


Video
ID : 1
Format : AVC
Format/Info : Advanced Video Codec
Format profile : High@L3.0
Format settings, CABAC : Yes
Format settings, ReFrames : 2 frames
Codec ID : avc1
Codec ID/Info : Advanced Video Coding
Duration : 3mn 32s
Bit rate mode : Variable
Bit rate : 2 326 Kbps
Maximum bit rate : 4 450 Kbps
Width : 720 pixels
Height : 480 pixels
Display aspect ratio : 16:9
Original display aspect ratio : 16:9
Frame rate mode : Constant
Frame rate : 23.976 fps
Standard : NTSC
Color space : YUV
Chroma subsampling : 4:2:0
Bit depth : 8 bits
Scan type : Progressive
Bits/(Pixel*Frame) : 0.281
Stream size : 58.9 MiB (97%)



Audio
ID : 2
Format : AAC
Format/Info : Advanced Audio Codec
Format profile : LC
Codec ID : 40
Duration : 3mn 32s
Bit rate mode : Variable
Bit rate : 72.0 Kbps
Maximum bit rate : 86.8 Kbps
Channel(s) : 2 channels
Channel positions : Front: L R
Sampling rate : 44.1 KHz
Compression mode : Lossy
Stream size : 1.85 MiB (3%)
Files:

Comments