Adam Chaplin (2011) DVDRip XviD - DSTRY

Type: >
Size:n/a
Tag(s):HorrorGore2011DVDRipEngsubs
Info:IMDB
Spoken language(s):Italienisch
Uploaded:Jan 1st, 1970
By:HorrorspokeVIP
Seeders:7
Leechers:2
Comments5
Info Hash:8f7f4bf23abeede5f8d2e286b1f0c8cfe1f0d600
Adam Chaplin (2011) DVDRip XviD - DSTRY picture
Set in the fictional country of Heaven Valley, the film is the story of a man, Adam, who following the suspicious death of his wife begins to investigate her murder and in doing so, discovers the involvement of local mafia boss: Denny Richards.


Unable to trust the police, corrupt and controlled by Denny, Adam, consumed by anger, summons a demon who offers him superhuman strength and dark powers. The demon follows him during his trip, promising to lead Adam to the door of the murderer if he does everything the demon asks.


This unleashes a bloody war that will bring Adam, the demon on his side, against the police department with all its dark allies. The fight begins and it will be extreme!


ENCODE INFO:


General
Format : AVI
Format/Info : Audio Video Interleave
Format profile : OpenDML
File size : 1.13 GiB
Duration : 1h 24mn
Overall bit rate : 1 905 Kbps
Writing application : MEncoder version Beta 4.4.5 building on 20110111


Video
ID : 0
Format : MPEG-4 Visual
Format profile : Advanced Simple@L5
Format settings, BVOP : 2
Format settings, QPel : No
Format settings, GMC : No warppoints
Format settings, Matrix : Default (H.263)
Codec ID : XVID
Codec ID/Hint : XviD
Duration : 1h 24mn
Bit rate : 1 761 Kbps
Width : 720 pixels
Height : 404 pixels
Display aspect ratio : 16:9
Frame rate : 25.000 fps
Color space : YUV
Chroma subsampling : 4:2:0
Bit depth : 8 bits
Scan type : Progressive
Compression mode : Lossy
Bits/(Pixel*Frame) : 0.242
Stream size : 1.04 GiB (92%)
Writing library : XviD 1.2.1 (UTC 2008-12-04)


Audio
ID : 1
Format : MPEG Audio
Format version : Version 1
Format profile : Layer 3
Codec ID : 55
Codec ID/Hint : MP3
Duration : 1h 24mn
Bit rate mode : Constant
Bit rate : 128 Kbps
Channel(s) : 2 channels
Sampling rate : 44.1 KHz
Compression mode : Lossy
Delay relative to video : 40ms
Stream size : 1.64 MiB (0%)
Alignment : Aligned on interleaves
Interleave, duration : 1236 ms (30.89 video frames)
Interleave, preload duration : 522 ms



SCREENS:







PLEASE BE PATIENT, MY UPLOAD SPEED ISN'T TOO HOT :)


Thanks to Creature for the original file :)


ENJOY, AND SEED AWAY.....
Files:

Comments

Thank you.

omrickMar 19th, 2012

yessssssss! thanksssss............250 sold in 2 hrs dvd's. mmmmmm

intobearzzApr 4th, 2012

The trailer looks fantastic! Thx

invi.godApr 6th, 2012

Awesome movie!!!!! Thank you so much..

p3l1grosaApr 14th, 2012

mwahahah what a lame movie, but going to watch it for killing my brain!

CyberVoidOct 1st, 2012