Jenna Is Timeless

Type:Porn > Movies
Size:680.22 MB
Uploaded:Dec 30th, 2011
By:tigris1968
Seeders:0
Leechers:0
Comments0
Info Hash:366dcb0c856a2b4279f2572c915888eac8d48613
Jenna Is Timeless DVD


StudioClub Jenna


CategoryAll Sex, Compilation, Star-Power


StarringJessica Drake, Dana DeArmond, Jenna Jameson, Brooke Haven,


Bridgette Kerkove, Ava Vincent, Daisy Marie, Cindy Crawford, Cherry.

bayimg.com/EALOEaadj

bayimg.com/eaLOFAADj

bayimg.com/EalOgaaDJ


General
Complete name : C:DownloadsJenna Is TimelessJenna Is Timeless.avi
Format : AVI
Format/Info : Audio Video Interleave
File size : 679 MiB
Duration : 1h 11mn
Overall bit rate : 1 324 Kbps
Writing application : MEncoder SVN-r30881(20100311-gcc4.3.3)
Writing library : MPlayer


Video
ID : 0
Format : MPEG-4 Visual
Format profile : Advanced Simple@L5
Format settings, BVOP : 2
Format settings, QPel : No
Format settings, GMC : No warppoints
Format settings, Matrix : Default (H.263)
Codec ID : XVID
Codec ID/Hint : XviD
Duration : 1h 11mn
Bit rate : 1 184 Kbps
Width : 720 pixels
Height : 480 pixels
Display aspect ratio : 3:2
Frame rate : 25.000 fps
Standard : NTSC
Color space : YUV
Chroma subsampling : 4:2:0
Bit depth : 8 bits
Scan type : Progressive
Compression mode : Lossy
Bits/(Pixel*Frame) : 0.137
Stream size : 607 MiB (89%)
Writing library : XviD 1.2.1 (UTC 2008-12-04)


Audio
ID : 1
Format : MPEG Audio
Format version : Version 1
Format profile : Layer 3
Mode : Joint stereo
Mode extension : MS Stereo
Codec ID : 55
Codec ID/Hint : MP3
Duration : 1h 11mn
Bit rate mode : Constant
Bit rate : 128 Kbps
Channel(s) : 2 channels
Sampling rate : 44.1 KHz
Compression mode : Lossy
Delay relative to video : 40ms
Stream size : 65.7 MiB (10%)
Alignment : Aligned on interleaves
Interleave, duration : 26 ms (0.65 video frame)
Interleave, preload duration : 522 ms
Writing library : LAME3.98
Files:

Comments