NCAA_Basketball_OSU_VS_Kansas_480p.HDTV.x264_TTL

Uploaded:Dec 12th, 2011
By:thetorrentlordVIP
Seeders:0
Leechers:0
Comments0
Info Hash:383940dc3a9c007575334fd5ac6358b2d5f9d16f
Split into 2 files.





Bonus report on UC-Xavier FIGHT.








Enjoy and please share.

















TTLTTLTTLTTLTTLTTLTTLTTLTTLTTLTTLTTLTTLTTLTTLTTLTTLTTLTTLTTLTTLTTLTTLTTLTTLTTLTTL

















NCAA_Basketball_OSU_VS_Kansas_1st_Half_480p.HDTV.x264_TTL.mkv
Format : Matroska
File size : 696 MiB
Duration : 44mn 50s
Overall bit rate : 2 171 Kbps
Writing application : HandBrake 0.9.5
Writing library : libmkv 0.6.4.1


Video
ID : 1
Format : AVC
Format/Info : Advanced Video Codec
Format profile : Main@L3.0
Format settings, CABAC : Yes
Format settings, ReFrames : 4 frames
Muxing mode : Container profile=Unknown@3.0
Codec ID : V_MPEG4/ISO/AVC
Duration : 44mn 47s
Bit rate : 1 904 Kbps
Nominal bit rate : 1 941 Kbps
Width : 624 pixels
Height : 352 pixels
Display aspect ratio : 16:9
Frame rate mode : Variable
Frame rate : 29.970 fps
Resolution : 8 bits
Colorimetry : 4:2:0
Scan type : Progressive
Bits/(Pixel*Frame) : 0.289
Stream size : 610 MiB (88%)
Writing library : x264 core 112
Encoding settings : cabac=1 / ref=2 / deblock=1:0:0 / analyse=0x1:0x111 /


me=hex / subme=6 / psy=1 / psy_rd=1.00:0.00 / mixed_ref=0 / me_range=16 / chroma_me=1 /


trellis=0 / 8x8dct=0 / cqm=0 / deadzone=21,11 / fast_pskip=1 / chroma_qp_offset=-2 /


threads=3 / sliced_threads=0 / nr=0 / decimate=1 / interlaced=0 / constrained_intra=0 /


bframes=2 / b_pyramid=2 / b_adapt=1 / b_bias=0 / direct=1 / weightb=0 / open_gop=0 /


weightp=2 / keyint=300 / keyint_min=29 / scenecut=40 / intra_refresh=0 / rc_lookahead=40 /


rc=2pass / mbtree=1 / bitrate=1941 / ratetol=1.0 / qcomp=0.60 / qpmin=3 / qpmax=51 /


qpstep=4 / cplxblur=20.0 / qblur=0.5 / ip_ratio=1.40 / aq=1:1.00
Color primaries : BT.601-6 525, BT.1358 525, BT.1700 NTSC, SMPTE 170M
Transfer characteristics : BT.709-5, BT.1361
Matrix coefficients : BT.601-6 525, BT.1358 525, BT.1700 NTSC, SMPTE 170M


Audio
ID : 2
Format : AC-3
Format/Info : Audio Coding 3
Codec ID : A_AC3
Duration : 44mn 50s
Bit rate mode : Constant
Bit rate : 224 Kbps
Channel(s) : 2 channels
Channel positions : L R
Sampling rate : 48.0 KHz
Stream size : 71.8 MiB (10%)
Files:

Comments