Fast and Furious 5 Fast Five (2011) DVDRip XviD-MAX 

Fast and Furious 5 Fast Five (2011) DVDRip XviD-MAX
Type:
Video > Movies
Size:
1.37 GB
Tag(s):
Fast and Furious 5 Fast Five 2011 DVDRip XviD MAX
Info:
IMDB
Spoken language(s):
English
Uploaded:
2011-08-19T02:40:47+01:00
By:
extremezone VIP
Seeders:
451
Leechers:
79
Comments
360
Info Hash:
ce1fc50bffb09962be8f3c49478cbeb65e2afe0f
Fast and Furious 5 Fast Five (2011) DVDRip XviD-MAX picture
 

Screens:
 

 

 

 


Alternative:
 

 

 

 


ScreenCaps:
 


Fast and Furious 5 Fast Five (2011) DVDRip XviD-MAX

Format                           : AVI
Format/Info                      : Audio Video Interleave
Format profile                   : OpenDML
File size                        : 1.37 GiB
Duration                         : 2h 10mn
Overall bit rate                 : 1 500 Kbps
Movie name                       : Fast Five (2011)
Writing application              : VirtualDubMod 1.5.10.2 (build 2542/release)
Writing library                  : VirtualDubMod build 2542/release
Original source form             : MAX TORRENTZ
Copyright                        : SIGISMUNT

Video
ID                               : 0
Format                           : MPEG-4 Visual
Format profile                   : AdvancedSimple@L5
Format settings, BVOP            : Yes
Format settings, QPel            : No
Format settings, GMC             : No warppoints
Format settings, Matrix          : Custom
Codec ID                         : XVID
Codec ID/Hint                    : XviD
Duration                         : 2h 10mn
Bit rate                         : 1 047 Kbps
Width                            : 720 pixels
Height                           : 304 pixels
Display aspect ratio             : 2.35:1
Frame rate                       : 23.976 fps
Resolution                       : 24 bits
Colorimetry                      : 4:2:0
Scan type                        : Progressive
Bits/(Pixel*Frame)               : 0.199
Stream size                      : 976 MiB (70%)
Writing library                  : XviD 58

Audio
ID                               : 1
Format                           : AC-3
Format/Info                      : Audio Coding 3
Codec ID                         : 2000
Duration                         : 2h 10mn
Bit rate mode                    : Constant
Bit rate                         : 448 Kbps
Channel(s)                       : 6 channels
Channel positions                : Front: L C R, Surround: L R, LFE
Sampling rate                    : 48.0 KHz
Stream size                      : 418 MiB (30%)
Alignment                        : Aligned on interleaves
Interleave, duration             : 64 ms (1.53 video frames)
Interleave, preload duration     : 192 ms
 
www.imdb.com/title/tt1596343/
 
Source: DVD (perfect a/v/sync quality,sample included)
This torrent is not seedbox supported,please seed it to the MAX

Note:If you have something to offer as early releases,seedboxes,links,accounts,etc
please contact us on piratepedia[@]msn/gmail.com or our website torentz 3xforum ro

Fast and Furious 5 Fast Five (2011) DVDRip XviD-MAX Torrent Free Download
 
thepiratebay.se/user/extremezone/0/7

How To Get Your Maxspeed (uTorrent)

Torrent Client - Preferences - Bandwidth - Number of connections - Set aprox. 500 for each 
Torrent Client - Preferences - BiTorrent - Protocol Encryption - Forced
Bandwidth Allocation - High (Set download/upload limit - Unlimited)
Stop Other Active Torrents - Start downloading and wait for connections.
Enjoy and Seed for at least 1:1 ratio. Don't forget to say thanks/leave reviews.
Before downloading you should check/google search sample "release name""sample".
Greets to all actual/future p2p/scene QUALITY groups and affiliate websites.
Don't trust IMDb robot or bad ratings,always watch some trailers first.
Ignore stupid comments/fake/mislabeled/no-DVDrips/CAM/TS/RAR uploads.
Please spread this release/torrent to your friends/forums/etc.
If you need translation subs visit some subtitles sites.
Report if you see online streaming or other spam links.
Recommended movie player VLC PLAYER.
Files:

Comments

All long live MAX ! :P
thanks for the share ^_^ A - 9 V - 9
V: 10. A: 10.
I downloaded it but have no sound. Any ideas as to why that would be when people are giving it A10?
V 10 , A 0 , mouth's were moving but no speech coming out in mine.
R.I.P. Paul Walker you will be missed bro!!!
thx for the movie ,good quality
1 2 3 4 5 6 7 8 9 10 11 12 13 14