OSU_VS_Arkansas_Sugar_Bowl_1-4-2011_Fourth_Quarter

Uploaded:Jan 6th, 2011
By:thetorrentlordVIP
Seeders:0
Leechers:0
Comments0
Info Hash:aad20da37c2e4d654df0836012fca93387766dd3
This is from a SD broadcast. ******************************************************************************************************************OSU_VS_Arkansas_Sugar_Bowl_1-4-2011_Fourth_Quarter.avi
Format : AVI
Format/Info : Audio Video Interleave
File size : 700 MiB
Duration : 1h 32mn
Overall bit rate : 1 062 Kbps
Movie name : 20110104_4.mpg
Director : created.with.SUPER(C).v2010.bld.37
Writing application : SUPER(C)


Video
ID : 0
Format : MPEG-4 Visual
Format profile : Simple@L3
Format settings, BVOP : No
Format settings, QPel : No
Format settings, GMC : No warppoints
Format settings, Matrix : Default (H.263)
Codec ID : XVID
Codec ID/Hint : XviD
Duration : 46mn 3s
Bit rate : 2 016 Kbps
Width : 624 pixels
Height : 352 pixels
Display aspect ratio : 16:9
Frame rate : 23.976 fps
Color space : YUV
Chroma subsampling : 4:2:0
Bit depth : 8 bits
Scan type : Progressive
Bits/(Pixel*Frame) : 0.383
Stream size : 664 MiB (95%)
Writing library : XviD 1.1.2 (UTC 2006-11-01)


Audio
ID : 1
Format : MPEG Audio
Format version : Version 2
Format profile : Layer 3
Mode : Joint stereo
Mode extension : MS Stereo
Codec ID : 55
Codec ID/Hint : MP3
Duration : 1h 32mn
Bit rate mode : Constant
Bit rate : 96.0 Kbps
Channel(s) : 2 channels
Sampling rate : 22.05 KHz
Stream size : 31.6 MiB (5%)
Alignment : Aligned on interleaves
Interleave, duration : 26 ms (0.63 video frame)
Interleave, preload duration : 26 ms
Writing library : LAME3.98
Files:

Comments