Triage (PSP + Ipod touch + Zune)

Type: >
Size:n/a
Tag(s):Triagepspipodzuneh264
Info:IMDB
Uploaded:Jan 1st, 1970
By:
Seeders:0
Leechers:0
Comments2
Info Hash:4404ce215ddec7584f5b98e2dbfcdf694fb375aa
Triage (PSP + Ipod touch + Zune) picture
Triage 
www.imdb.com/title/tt1217070/


Source :

Triage 2009 720p BluRay X264 QCF

No subs sorry!


Info :

ID : 1
Format : AVC
Format/Info : Advanced Video Codec
Format profile : Baseline@L2.1
Format settings, CABAC : No
Format settings, ReFrames : 3 frames
Codec ID : avc1
Codec ID/Info : Advanced Video Coding
Duration : 1h 39mn
Bit rate mode : Variable
Bit rate : 400 Kbps
Width : 480 pixels
Height : 272 pixels
Display aspect ratio : 16:9
Frame rate mode : Variable
Frame rate : 23.976 fps
Minimum frame rate : 23.810 fps
Maximum frame rate : 24.390 fps
Color space : YUV
Chroma subsampling : 4:2:0
Bit depth : 8 bits
Scan type : Progressive
Bits/(Pixel*Frame) : 0.128
Stream size : 285 MiB (75%)
Writing library : x264 core 79

ID : 2
Format : AAC
Format/Info : Advanced Audio Codec
Format version : Version 4
Format profile : LC
Format settings, SBR : No
Codec ID : 40
Duration : 1h 39mn
Bit rate mode : Variable
Bit rate : 128 Kbps
Maximum bit rate : 150 Kbps
Channel(s) : 2 channels
Channel positions : Front: L R
Sampling rate : 48.0 KHz
Stream size : 91.2 MiB (24%)

Screens :








PLEASE LET THE TORRENT SEED AND SHARE IT WITH ALL YOU KNOW!

Let me know what I can do to be your trusted source of Handheld videos.
thepiratebay.se/user/on.off.on/ -OOO
Files:

Comments

Thank you thank you, not a bad war movie even tho theres billions.

RIggstaJul 1st, 2010

thx u =)

 on.off.onJul 2nd, 2010