Dragon Hunters (PSP + Ipod touch + Zune)

Type:Video > Handheld
Size:308.74 MB
Tag(s):DragonHunterspspipodzuneH264
Info:IMDB
Spoken language(s):English
Uploaded:Jun 28th, 2010
By:on.off.onTrusted
Seeders:0
Leechers:0
Comments4
Info Hash:97d66a3152699b6af218b1bd61c83c5eec5c1051
Dragon Hunters (PSP + Ipod touch + Zune) picture
Dragon Hunters 
www.imdb.com/title/tt0944834/

Source :

Dragon Hunters.1080p.AC3(DD).5.1ch.Blu-ray.ps3.Akamaru415


Info :

ID : 1
Format : AVC
Format/Info : Advanced Video Codec
Format profile : Baseline@L2.1
Format settings, CABAC : No
Format settings, ReFrames : 3 frames
Format settings, GOP : M=1, N=7
Codec ID : avc1
Codec ID/Info : Advanced Video Coding
Duration : 1h 21mn
Bit rate mode : Variable
Bit rate : 395 Kbps
Width : 480 pixels
Height : 272 pixels
Display aspect ratio : 16:9
Frame rate mode : Variable
Frame rate : 23.976 fps
Minimum frame rate : 11.987 fps
Maximum frame rate : 23.981 fps
Color space : YUV
Chroma subsampling : 4:2:0
Bit depth : 8 bits
Scan type : Progressive
Bits/(Pixel*Frame) : 0.126
Stream size : 232 MiB (75%)
Writing library : x264 core 79

ID : 2
Format : AAC
Format/Info : Advanced Audio Codec
Format version : Version 4
Format profile : LC
Format settings, SBR : No
Codec ID : 40
Duration : 1h 21mn
Bit rate mode : Variable
Bit rate : 128 Kbps
Maximum bit rate : 173 Kbps
Channel(s) : 2 channels
Channel positions : Front: L R
Sampling rate : 48.0 KHz
Stream size : 75.0 MiB (24%)


Screens :








PLEASE LET THE TORRENT SEED AND SHARE IT WITH ALL YOU KNOW!

Let me know what I can do to be your trusted source of Handheld videos.
thepiratebay.se/user/on.off.on/ -OOO
Files:

Comments

no new movies these days mahnnn ??? :( can u post The Girl with the Dragon Tattoo dvd rip plzz in small size :D

htctouchJun 28th, 2010

No but i can post it from a 1080p bluray rip =)

 on.off.onJun 28th, 2010

yo man .. thanks

bara-dJun 28th, 2010

bare-d thx for the feedback! =)

 on.off.onJun 28th, 2010